Cry Baby (The Voice Performance) Alisan Porter | obeshtavam | Mere Jum Pen

lskdlskds



Do not remember me!

 
» » » Boredoms - Super Seeeeee!!!!!! (1998) {2004 Warner Music Vision}

Boredoms - Super Seeeeee!!!!!! (1998) {2004 Warner Music Vision}

Boredoms - Super Seeeeee!!!!!! (1998) {2004 Warner Music Vision}
Boredoms - Super Seeeeee!!!!!! (1998) {2004 Warner Music Vision}
DVD rip | AVI: Advanced [email protected] (720 x 544, 3476 Kbps) | Audio: MP3 (128 Kbps: VBR) | 27 min | Japanese | 694 mb
Genre: alternative, noise rock

General
Complete name : F:\AAA Stuff on Dell\videos\music

\Boredoms - Super Seeeeee!!!!!! (1998) {2004 Warner Music Vision}\Boredoms - Super

Seeeeee !!!!!!.avi
Format : AVI
Format/Info : Audio Video Interleave
File size : 700 MiB
Duration : 27mn 12s
Overall bit rate mode : Variable
Overall bit rate : 3 595 Kbps
Writing application : VirtualDubMod 1.5.4.1 (build

2178/release)
Writing library : VirtualDubMod build 2178/release

Video
ID : 0
Format : MPEG-4 Visual
Format profile : Advanced [email protected]
Format settings, BVOP : 1
Format settings, QPel : No
Format settings, GMC : No warppoints
Format settings, Matrix : Custom
Codec ID : XVID
Codec ID/Hint : XviD
Duration : 27mn 12s
Bit rate : 3 476 Kbps
Width : 720 pixels
Height : 544 pixels
Display aspect ratio : 4:3
Frame rate : 29.970 fps
Color space : YUV
Chroma subsampling : 4:2:0
Bit depth : 8 bits
Scan type : Progressive
Compression mode : Lossy
Bits/(Pixel*Frame) : 0.296
Stream size : 677 MiB (97%)
Writing library : XviD 1.2.0SMP (UTC 2006-01-08)

Audio
ID : 1
Format : MPEG Audio
Format version : Version 1
Format profile : Layer 3
Mode : Joint stereo
Mode extension : MS Stereo
Codec ID : 55
Codec ID/Hint : MP3
Duration : 27mn 12s
Bit rate mode : Variable
Bit rate : 105 Kbps
Nominal bit rate : 128 Kbps
Channel(s) : 2 channels
Sampling rate : 48.0 KHz
Compression mode : Lossy
Stream size : 20.4 MiB (3%)
Alignment : Aligned on interleaves
Interleave, duration : 24 ms (0.72 video frame)
Interleave, preload duration : 571 ms
Writing library : LAME3.97b
Encoding settings : -m j -V 4 -q 2 -lowpass 17 -abr 128
Language : Japanese
Download link:


Links are Interchangeable - Single Extraction - Premium Download To Resumable:
UploadGIG.com
0

F.A.Q. ADS

Buy Premium Here ^_^

Example Block