Television | Divx/Xvid | Scream 4 (2011) online

lskdlskds



Do not remember me!

 
» » » People Who Do Noise (2008)

People Who Do Noise (2008)

People Who Do Noise (2008)
People Who Do Noise (2008)
DVD rip | AVI: Advanced [email protected] (720 x 480, 1171 Kbps) | Audio: MP3 (128 Kbps) | 80 min | English | 708 mb
Genre: documentary, music, noise, experimental, avant-garde

General
Complete name : F:\AAA Stuff on Dell\videos\music\People Who Do Noise (2008)\People Who Do Noise (2008).avi
Format : AVI
Format/Info : Audio Video Interleave
File size : 757 MiB
Duration : 1h 20mn
Overall bit rate : 1 313 Kbps
Writing application : Lavf51.12.1

Video
ID : 0
Format : MPEG-4 Visual
Format profile : [email protected]
Format settings, BVOP : No
Format settings, QPel : No
Format settings, GMC : No warppoints
Format settings, Matrix : Default (H.263)
Codec ID : DX50
Codec ID/Hint : DivX 5
Duration : 1h 20mn
Bit rate : 1 171 Kbps
Width : 720 pixels
Height : 480 pixels
Display aspect ratio : 3:2
Frame rate : 29.970 fps
Standard : NTSC
Color space : YUV
Chroma subsampling : 4:2:0
Bit depth : 8 bits
Scan type : Progressive
Compression mode : Lossy
Bits/(Pixel*Frame) : 0.113
Stream size : 675 MiB (89%)
Writing library : Lavc51.40.4

Audio
ID : 1
Format : MPEG Audio
Format version : Version 1
Format profile : Layer 3
Mode : Joint stereo
Mode extension : MS Stereo
Codec ID : 55
Codec ID/Hint : MP3
Duration : 1h 20mn
Bit rate mode : Constant
Bit rate : 128 Kbps
Channel(s) : 2 channels
Sampling rate : 48.0 KHz
Compression mode : Lossy
Stream size : 73.8 MiB (10%)
Alignment : Aligned on interleaves
Interleave, duration : 24 ms (0.72 video frame)
Interleave, preload duration : 24 ms
Writing library : LAME3.97


IMDB.com
Download link:


Links are Interchangeable - Single Extraction - Premium Download To Resumable:
UploadGIG.com
0

F.A.Q. ADS

Buy Premium Here ^_^

Example Block